#TITLE:Speedcore Dandy;
#SUBTITLE:Speedcore;
#ARTIST:m1dy;
#TITLETRANSLIT:;
#SUBTITLETRANSLIT:;
#ARTISTTRANSLIT:;
#CREDIT:;
#BANNER:speedcoredandy.png;
#BACKGROUND:speedcoredandy-bg.png;
#LYRICSPATH:;
#CDTITLE:YItitle.png;
#MUSIC:speedcore dandy.mp3;
#OFFSET:-0.150;
#SAMPLESTART:29.083;
#SAMPLELENGTH:12.000;
#SELECTABLE:YES;
#DISPLAYBPM:432.000;
#BPMS:0.000=432.000,447.000=216.002,559.000=432.000,948.000=216.002,1069.500=432.000;
#STOPS:397.500=0.140
;
#BGCHANGES:;
// cache tags:
#FIRSTBEAT:0.000;
#LASTBEAT:1085.000;
#SONGFILENAME:Songs/nhac/m1dy - Speedcore Dandy/speedcoredandy.sm;
#HASMUSIC:1;
#HASBANNER:1;
#MUSICLENGTH:185.176;
// end cache tags

//---------------dance-single - ----------------
#NOTES:
     dance-single:
     :
     Hard:
     13:
     1.000,1.000,1.000,0.049,0.265,1634.000,382.000,9.000,0.000,0.000:
1000
0100
1000
0100
1000
0000
0010
0001
,
0010
0001
0010
0000
0100
0010
0100
0000
,
0010
0100
0010
0100
0010
0001
1000
0001
,
1000
0001
0000
0000
1001
0000
0000
0000
,
1000
0010
1000
0010
1000
0000
0100
0001
,
0100
0001
0100
0000
0010
0100
0010
0000
,
1000
0001
1000
0001
1000
0000
0001
0100
,
0001
0100
0001
0000
1001
0000
0000
0000
,
1000
0001
1000
0001
1000
0000
0010
0100
,
0010
0100
0010
0000
1000
0100
1000
0000
,
0001
0100
0001
0100
0001
0000
1000
0010
,
1000
0010
1000
0000
1001
0000
0000
0000
,
2002
0000
0000
0000
,
0000
0000
0000
3003
,
0110
0000
0110
0000
,
0100
0010
0100
0010
0100
0010
0100
0010
,
0100
0000
0001
0010
0100
1000
0010
0100
,
0001
0100
0010
1000
0100
0010
0001
1000
,
0100
0010
0001
0100
0010
1000
0001
0010
,
0100
1000
0001
0010
0100
1000
0100
0010
,
0001
0100
0010
1000
0010
0100
0001
0010
,
0100
1000
0100
0010
0001
0100
0010
1000
,
0010
0100
0001
0010
0100
1000
0100
0010
,
0001
0100
0010
1000
0010
0100
0001
0010
,
0100
1000
0001
0010
0100
1000
0010
0100
,
0001
1000
0100
0010
0001
1000
0100
0010
,
0001
0100
0010
1000
0010
0100
0001
0010
,
0100
1000
0100
0010
0001
1000
0100
0010
,
0001
0100
0010
1000
0001
0010
0100
1000
,
0010
0100
0001
0010
0100
1000
0010
0100
,
1001
0000
1001
0000
,
1001
0100
0010
0100
0010
0100
0010
0100
,
0010
0000
1000
0010
0100
0001
1000
0010
,
0100
0001
0100
0010
1000
0001
0100
0010
,
1000
0100
0010
0001
1000
0100
0010
0001
,
0010
0100
1000
0001
0010
0100
1000
0010
,
0100
0001
1000
0100
0010
0001
0100
0010
,
1000
0001
0010
0100
1000
0001
0100
0010
,
1000
0100
0010
0001
1000
0100
0010
0001
,
0100
0010
1000
0010
0100
0001
1000
0100
,
0010
0001
0010
0100
1000
0010
0100
0001
,
0100
0010
1000
0010
0100
0001
0010
0001
,
1000
0001
1000
0100
1000
0010
1000
0010
,
0100
0001
0010
0100
1000
0010
0100
0001
,
0100
0010
1000
0010
0100
0001
1000
0100
,
0010
0001
0100
0010
1000
0001
0010
0100
,
1000
0020
0200
0000
0000
0000
0000
0000
,
0000
0000
0000
0000
,
0330
1001
0101
1010
,
0110
0101
1010
1100
,
0011
0110
1001
0110
,
1001
0011
1100
0011
,
1100
0110
0101
0110
,
0101
1001
1100
1001
,
1100
0110
0101
0110
,
1010
0110
0101
0110
,
1001
0110
1001
0110
,
1001
1100
0011
1100
,
0011
1100
0011
1100
,
0011
0101
1010
0101
,
1010
0101
1010
0101
,
1010
0110
1001
0110
,
1000
0100
0010
0001
0010
0100
1000
0100
,
0020
0000
0000
0000
,
0030
1000
0010
0100
,
1001
0010
0100
0010
,
1010
1000
0001
0010
,
0101
1000
0010
0100
,
1010
0001
0100
0010
,
1100
0010
0100
0001
,
1100
0010
0100
0101
,
1000
0100
0010
0001
0010
0100
1000
0100
,
0110
0001
0010
1000
,
0101
0010
0100
0001
,
1100
0010
0100
0001
,
1001
0100
0001
1000
,
0110
0001
1000
0010
,
1100
0010
1000
0001
,
1000
0100
1000
0100
1000
0000
0010
0001
,
0010
0001
0010
0000
1000
0001
1000
0000
,
1001
0101
1010
0110
,
0101
1010
0110
0101
,
1100
0110
1001
0110
,
1100
1010
0101
0011
,
0110
1001
0110
1100
,
1000
0100
1000
0000
1010
0000
0101
0000
,
0011
0101
0011
0101
,
0011
0000
1001
0000
0000
1000
0100
0010
,
0001
1001
1001
0110
,
0110
1001
0110
1001
,
0110
1100
1010
1100
,
1010
0101
0011
0101
,
0011
0110
1001
0101
,
0011
1001
1010
1100
,
1010
0000
1001
0000
,
0101
0010
1000
0010
1000
0010
1000
0010
,
1000
0000
0001
0010
0100
1000
0010
0100
,
0001
0100
0010
1000
0100
0010
0001
0010
,
0100
1000
0010
0100
0001
0010
0100
1000
,
0100
0010
0001
0100
0001
0010
0100
1000
,
0010
0100
0001
0100
0010
1000
0001
0010
,
0100
1000
0010
0100
0001
1000
0100
0010
,
0001
0010
0100
1000
0001
0100
0010
1000
,
0010
0100
0001
1000
0100
0010
0001
0100
,
0010
1000
0010
0100
0001
0010
0100
1000
,
0001
0010
0100
1000
0001
0100
0010
1000
,
0001
0100
0010
1000
0100
0010
0001
1000
,
0100
0010
0001
1000
0010
0100
0001
1000
,
0010
0000
0000
0000
,
0000
0000
0000
0000
,
0000
0000
0000
0000
,
0000
0000
0000
1001
,
0000
0000
0000
0000
,
0000
0000
0000
1001
,
0000
0000
0000
0000
,
0000
0000
0000
1001
,
1000
0100
1000
0000
0001
0010
0001
0000
0100
0010
0100
0000
1000
0010
1000
0000
,
0001
0100
0001
0000
1000
0100
1000
0000
0010
0001
0010
0000
1001
0000
0000
0000
,
1000
0100
1000
0000
0010
0001
0010
0000
0100
0010
0100
0000
1001
0000
0000
0000
,
1001
0000
1001
0000
1001
0000
1001
0000
1001
1001
1001
1001
1001
0000
0000
0000
,
1001
0110
0101
1010
,
0110
1100
0110
0011
,
1001
0110
1100
0110
,
0101
0000
0000
0000
0100
0010
0100
0000
0110
0000
0110
0000
0110
0000
0000
0000
,
1100
0110
0011
1010
,
0011
0110
1001
0110
,
1100
0011
0110
1100
,
0110
0011
1001
0110
,
1000
0100
1000
0000
0010
0001
0010
0000
0100
0010
0100
0000
0001
0100
0001
0000
,
1000
0010
1000
0000
0100
0001
0100
0000
0010
0100
0010
0000
1000
0010
1000
0000
,
1000
0100
1000
0000
0001
0010
0001
0000
0001
0100
0001
0000
0010
0100
0010
0000
,
1000
0001
1000
0000
0010
0100
0010
0000
1000
0100
1000
0000
0010
0001
0010
0000
,
1000
0010
1000
0000
0001
0100
0001
0000
1000
0001
1000
0000
0010
0100
0010
0000
,
1000
0100
1000
0000
0010
0001
0010
0000
0010
0100
0010
0000
1100
0000
0000
0000
,
0000
0000
0000
1001
,
1001
0000
1001
0000
1001
0000
1001
0000
1001
1001
1001
1001
1001
0000
0000
0000
,
0000
0000
0000
1001
,
0000
0000
0000
1001
,
0000
0000
0000
2002
,
0000
0000
3003
1001
,
1001
1001
1001
1001
,
1001
1001
1001
1001
,
1001
1001
1001
1001
,
1001
1001
1001
1001
,
1001
1001
1001
1001
,
1001
1001
1001
1001
,
1001
1001
1001
1001
,
1001
0000
1001
0000
0110
0110
0110
0000
,
0110
0110
0110
0110
,
0110
0110
0110
0110
,
0110
0110
0110
0110
,
0110
0110
0110
0110
,
0110
0110
0110
0110
,
0110
0110
0110
0110
,
0100
0010
0100
0010
0100
0010
0100
0000
,
0010
0100
0010
0100
0010
0100
0000
0010
,
0100
0000
0100
0010
0100
0010
0100
0010
,
0100
0001
0100
0001
0100
0001
0100
0001
,
0100
0001
1000
0001
1000
0001
1000
0001
,
1000
0100
1000
0100
1000
0100
1000
0100
,
1000
0001
1000
0001
1000
0001
1000
0001
,
1000
0010
1000
0010
1000
0010
1000
0010
,
0100
0001
0100
0001
0100
0001
0100
0001
,
0010
0001
0010
0001
0010
0001
0010
0001
,
1000
0100
1000
0100
1000
0100
1000
0100
,
0001
0100
0001
0100
0001
0100
0001
0100
,
0001
1000
0001
1000
0001
1000
0001
1000
,
0001
1000
0100
1000
0100
1000
0100
0000
,
0000
0000
0000
0000
,
0000
0000
0000
0000
0000
0000
1010
0101
,
1010
0101
1010
0101
1010
0101
1010
0101
,
1010
0101
1010
0101
1010
0101
1010
0000
,
0000
0000
0000
0000
,
0000
0000
0011
0000
0000
0000
1000
0010
,
0100
0001
0010
0100
1000
0010
0100
0001
,
1000
0010
0100
0001
0010
0100
1000
0010
,
0100
0001
1000
0010
0100
0001
0010
0100
,
1000
0001
0010
0100
1000
0010
0100
0001
,
1000
0100
0010
0001
1000
0100
0010
0001
,
0010
0100
1000
0010
0100
0001
0010
0100
,
1000
0001
0010
0100
1000
0010
0100
0001
,
1000
0010
0100
0001
1000
0100
0010
0001
,
1000
0100
0010
0001
0100
0010
1000
0001
,
0010
0100
1000
0010
0100
0001
1000
0100
,
0010
0001
0100
0010
1000
0100
0010
0001
,
0100
0010
1000
0100
0010
0001
0100
0010
,
1000
0001
0010
0100
1000
0010
0100
0001
,
0010
0100
1000
0010
0100
0001
1000
0010
,
0100
0001
0010
0100
1000
0010
0100
0001
,
0010
0100
1000
0001
0010
0100
1000
0010
,
0100
0001
1000
0100
0010
0001
0100
0010
,
1000
0001
0100
0010
1000
0010
0100
0001
,
1000
0010
0100
0001
1000
0100
0010
0001
,
0010
0100
1000
0100
0010
0001
0100
0010
,
1000
0001
0100
0010
1000
0001
0010
0100
,
1000
0001
0100
0010
1000
0100
0010
0001
,
1000
0010
0100
0001
0100
0010
1000
0010
,
0100
0001
0100
0010
1000
0100
0010
0001
,
0010
0100
1000
0010
0100
0001
0010
0100
,
1000
0010
0100
0001
0010
0100
1000
0010
,
0100
0001
1000
0100
0010
0001
1000
0010
,
0100
0001
1000
0100
0010
0001
0010
0100
,
1000
0100
1000
0100
1000
0100
1000
0100
,
1000
0100
1000
0100
1000
0100
1000
0100
,
1000
0001
1000
0001
1000
0000
0001
0100
,
0001
0100
0001
0000
1001
0000
0000
0000
,
1001
0110
1001
0110
,
1001
1100
1010
1100
,
1010
0101
0011
0101
,
0011
0110
0101
0110
,
0101
0000
0110
0000
1010
0000
0100
0010
,
0100
1100
0110
1100
,
0110
0101
0011
0101
,
0011
0000
0110
0000
0100
1000
0100
0000
,
1001
0101
0110
1001
,
0101
1100
1010
1001
,
1010
0110
1001
0110
,
1001
0011
1100
0011
,
1100
1010
0101
0110
,
1001
0110
1001
0110
,
0000
0000
0110
0000
0000
0000
0110
0110
,
0110
0110
0110
0110
0110
0110
0110
0000
,
1000
0010
0100
0001
1000
0010
0100
0001
,
1000
0100
0010
0001
1000
0100
0010
0001
,
0010
0100
1000
0001
0010
0100
1000
0001
,
0100
0010
1000
0001
0100
0010
1000
0010
,
0100
0001
1000
0010
0100
0001
0010
0100
,
1000
0100
0010
0001
1000
0010
0100
0001
,
0100
0010
1000
0100
0010
0001
0010
0100
,
1000
0010
0100
0001
0010
0100
1000
0001
,
0100
0010
1000
0001
0010
0100
1000
0010
,
0100
0001
1000
0100
0010
0001
1000
0010
,
0100
0001
0010
0100
1000
0001
0010
0100
,
1000
0010
0100
0001
1000
0010
0100
0000
,
0100
0000
0000
0000
,
0000
0000
0000
0000
,
0000
0000
0000
0000
,
1001
0000
0000
0000
1000
0100
1000
0000
0010
0001
0010
0000
0100
0010
0100
0000
,
0001
0010
0001
0000
1000
0100
1000
0000
0001
0100
0001
0000
1000
0010
1000
0000
,
0001
1000
0001
0000
0100
0010
0100
0000
1000
0100
1000
0000
0010
0001
0010
0000
,
0010
0100
0010
0000
1000
0100
1000
0000
0001
0100
0001
0000
0100
0010
0100
0000
,
1000
0010
1000
0000
0010
0100
0010
0000
0001
0100
0001
0000
1000
0010
1000
0000
,
0001
1000
0001
0000
1000
0100
1000
0000
0001
0010
0001
0000
0100
0010
0100
0000
,
0001
0100
0001
0000
1000
0100
1000
0000
0010
1000
0010
0000
0010
0001
0010
0000
,
1000
0100
1000
0000
0100
0010
0100
0000
0001
1000
0001
0000
0100
0010
0100
0000
,
0001
0100
0001
0000
1000
0010
1000
0000
0100
0010
0100
0000
0100
0001
0100
0000
,
1000
0010
1000
0000
0100
1000
0100
0000
0100
0001
0100
0000
0010
1000
0010
0000
,
0010
0001
0010
0000
1000
0001
1000
0000
1000
0001
1000
0000
1000
0001
1000
0000
,
0010
0100
0010
0000
0010
0100
0010
0000
0010
0100
0010
0000
0010
0100
0010
0000
,
1000
0100
1000
0000
1000
0100
1000
0000
1000
0100
1000
0000
1000
0100
1000
0000
,
0001
0100
0001
0000
0001
0100
0001
0000
0001
0100
0001
0000
0001
0100
0001
0000
,
0100
0010
0100
0000
0010
0100
0010
0000
0100
0000
0000
0000
0000
0000
0000
0000
,
0000
0000
0110
0000
0110
0110
0110
0110
,
0110
0110
0110
0000
0000
0101
0000
1010
,
0000
0110
0000
1001
0000
0101
0000
1010
,
0000
0110
0000
0101
0000
1010
0000
0011
,
0000
0000
1100
0000
0000
0000
1010
0000
0000
0000
1001
0000
0000
0000
0100
0010
,
0100
0110
0110
0110
0000
1010
0000
0101
,
0000
0110
0000
1001
0000
1010
0000
0101
,
0000
0011
0000
1100
0000
0110
0000
0101
,
0000
1010
0000
0110
0000
1001
0000
0011
,
0000
0000
0010
0001
0010
0000
2020
0000
0000
0000
0000
0000
0000
0000
0000
0000
,
0000
3030
0000
0100
0000
0001
0000
1000
,
0000
0010
0000
0100
0000
0001
0000
1000
,
0000
0000
0100
0000
0000
0000
0010
0000
0000
0000
1000
0000
0000
0000
0001
1000
,
0001
0100
0100
0100
0000
1000
0000
0001
,
0000
0100
0000
0010
0000
1000
0000
0001
,
0000
1000
0000
0110
0000
0000
0000
0000
,
0000
0000
0000
0000
,
0110
0000
0110
0110
,
0110
0000
0110
0110
0110
0110
0110
0000
,
0110
0110
0000
0000
;
